Вязание спицами торрент

Добавлено: 11.03.2018, 01:12 / Просмотров: 34375





Закрыть ... [X]

Knitting For Beginners | Видеоуроки вязания спицами спицами [1-53 уроков из???] [Обновляемая]Автор: Knitting For Beginners Описание: Курс по вязанию спицами будет неожиданным даже для очень опытных вязальщиц, не смотря на то, что это всего лишь азы вязания. В начале мы узнаем о различных вариантах набора петель на спицы, а потом я расскажу о 16 способах вязания, которые используются разными народами. И тогда у начинающих вязальщиц будет очень большой выбор. Прежде чем начать тренироваться, нужно крепко задуматься, каким же лучше вязать способом? Предупреждаю – способов вязания спицами много, а выбрать нужно всего лишь один! Впрочем не буду торопить события.

Список видеоуроков

Базовые навыки:
01 Урок – Спицы для вязания
02 Урок – Как держать в руках спицы
03 Урок – Способы вязания первой петли
04 Урок – Набор петель - 1 способ. Норвежский метод
05 Урок – Набор петель - 2 способ
06 Урок – Набор петель - 3 способ
07 Урок – Набор петель - 4 способ. С утолщенным краем
08 Урок – Набор петель - 5 способ. Французский метод
09 Урок – Набор петель - 6 способ. Крестообразный набор
10 Урок – Набор петель - 7 способ. Крестообразный набор петель с утолщенным краем
11 Урок – Набор петель - 8 способ. На цепочку из воздушных петель
12 Урок – Набор петель - 9 способ. От рабочей нитки
13 Урок – Набор петель - 10 способ. Итальянский
14 Урок – Набор петель - 11 способ. С указательного пальца правой руки
15 Урок – Набор петель - 12 способ. С образованием косички
16 Урок – Набор петель - 13 способ. Перекрёстный набор
17 Урок – Набор петель - 14 способ. Витой немецкий набор
18 Урок – Набор петель - 15 способ. Набор с помощью крючка
19 Урок – Набор петель - 16 способ. С перекидом
20 Урок – Набор петель - 17-25 способ. Воздушными петлями
21 Урок – Набор петель - 26 способ
22 Урок – Набор петель - 27 способ. С открытыми петлями на кольцевые спицы
23 Урок – Набор петель - 28 способ. С открытыми петлями на дополнительную нить
24 Урок – Набор петель. Лицевая петля - За переднюю стенку петли. 1 способ
25 Урок – Набор петель. Лицевая петля - За заднюю стенку петли. 3 способ
26 Урок – Набор петель. Лицевая петля - За переднюю стенку петли. 5 способ
27 Урок – Набор петель. Лицевая петля - За заднюю стенку петли. 7 способ
28 Урок – Набор петель. Лицевая петля - За переднюю стенку петли. Английский метод. 9 способ
29 Урок – Набор петель. Лицевая петля - За заднюю стенку петли. Английский метод. 11 способ
30 Урок – Набор петель. Лицевая петля - За переднюю стенку петли. Нестандартный английский метод. 13 способ
31 Урок – Набор петель. Лицевая петля - За заднюю стенку петли. Нестандартный английский метод. 15 способ
32 Урок – Скрещенная лицевая петля - За переднюю стенку петли
33 Урок – Скрещенная лицевая петля - За заднюю стенку петли
34 Урок – Набор петель. Изнаночная петля - За переднюю стенку петли. Континентальный метод. 1 способ
35 Урок – Набор петель. Изнаночная петля - За заднюю стенку петли. Континентальный метод. 3 способ
36 Урок – Набор петель. Изнаночная петля - За переднюю стенку петли. Нестандартный континентальный метод. 5 способ
37 Урок – Набор петель. Изнаночная петля - За заднюю стенку петли. Нестандартный континентальный метод. 7 способ
38 Урок – Набор петель. Изнаночная петля - За переднюю стенку петли. Английский метод. 9 способ
39 Урок – Набор петель. Изнаночная петля - За заднюю стенку петли. Английский метод. 11 способ
40 Урок – Набор петель. Изнаночная петля - За переднюю стенку петли. Нестандартный английский метод. 13 способ
41 Урок – Набор петель. Изнаночная петля - За заднюю стенку петли. Нестандартный английский метод. 15 способ
42 Урок – Скрещенная изнаночная петля - За переднюю стенку петли
43 Урок – Скрещенная изнаночная петля - За заднюю стенку петли
44 Урок - Как закрыть петли - Русский метод
45 Урок - Как закрыть петли - 4 способ
46 Урок - Как закрыть петли - 5 способ
47 Урок - Как закрыть петли - 6 способ
48 Урок - Как закрыть петли - 7 способ
Узоры:
1 Узор - Платочная вязка
2 Узор - Лицевая и изнаночная гладь
3 Узор - Резинка 1х1
4 Узор - Резинка 2х2
5 Узор - Путанка

Описание обновления торрента

Внимание! Раздача ведётся путём добавления новых уроков; при каждом добавлении создётся новый торрент файл. Чтобы начать докачку нового урока, необходимо сделать следующее:
1. Остановить скачивание.
2. Удалить старый торрент файл у себя из клиента (старые уроки удалять не надо).
3. Скачать новый торрент файл и запустить его у себя в клиенте вместо старого, при этом указать клиенту путь в старую папку куда и должно происходить скачивание новых уроков.
Ваш клиент при этом должен произвести хеширование (проверку) старой папки (если не производит сам - помогите ему это сделать), и будет докачивать только те уроки которых у вас ещё нет. Старые уроки при этом не удаляются, а продолжают раздаваться!
Eсли вы уже удалили старые уроки, то предотвратить повторную закачку старых уроков можно, убрав галочку в соответствующих местах при запуске нового торрента файл. По возможности, желательно не удалять старые уроки как можно дольше чтобы релизёр не столько продолжал раздавать старые уроки, а смог сконцентрироваться на новых.

MI:

Общее
Полное имя : C:\Download\Knitting For Beginners - Видеоуроки вязания спицами [2013]\БАЗОВЫЕ НАВЫКИ Урок – Спицы для вязания.avi
Формат : AVI
Формат/Информация : Audio Video Interleave
Размер файла : 11,0 Мбайт
Продолжительность : 3 м. 3 с.
Общий поток : 500 Кбит/сек
Программа кодирования : Lavf51.12.1
Видео
Идентификатор : 0
вязание спицами торрент Формат : MPEG-4 Visual
Профиль формата : Simple@L1
Параметр BVOP формата : Нет
Параметр QPel формата : Нет
Параметр GMC формата : Без точки перехода
Параметр матрицы формата : Default (H.263)
Идентификатор кодека : DX50
Идентификатор кодека/Подсказка : DivX 5
Продолжительность : 3 м. 3 с.
Битрейт : 360 Кбит/сек
Ширина : 640 пикселей
Высота : 480 пикселей
Соотношение сторон : 4:3
Частота кадров : 25,000 кадров/сек
Цветовое пространство : YUV
Субдискретизация насыщенности : 4:2:0
Битовая глубина : 8 бит
Тип развёртки : Прогрессивная
Метод сжатия : С потерями
Бит/(ПикселиКадры) : 0.047
Размер потока : 7,88 Мбайт (72%)
Библиотека кодирования : Lavc51.40.4
Аудио
Идентификатор : 1
Формат : MPEG Audio
Версия формата : Version 1
Профиль формата : Layer 3
Режим : Joint stereo
Расширение режима : MS Stereo
Идентификатор кодека : 55
Идентификатор кодека/Подсказка : MP3
Продолжительность : 3 м. 3 с.
Вид битрейта : Постоянный
Битрейт : 128 Кбит/сек
Каналы : 2 канала
Частота : 44,1 КГц
Метод сжатия : С потерями
Размер потока : 2,81 Мбайт (26%)
Выравнивание : Соединение по промежуткам
Продолжительность промежутка : 26 мс. (0,65 видеокадр)
Библиотека кодирования : LAME3.97
Общее
Полное имя : C:\Download\Knitting For Beginners - Видеоуроки вязания спицами [2013]\БАЗОВЫЕ НАВЫКИ Урок – Как держать в руках спицы.avi
Формат : AVI
Формат/Информация : Audio Video Interleave
Размер файла : 9,86 Мбайт
Продолжительность : 2 м. 39 с.
Общий поток : 520 Кбит/сек
Программа кодирования : Lavf51.12.1
Видео
Идентификатор : 0
Формат : MPEG-4 Visual
Профиль формата : Simple@L1
Параметр BVOP формата : Нет
Параметр QPel формата : Нет
Параметр GMC формата : Без точки перехода
Параметр матрицы формата : Default (H.263)
Идентификатор кодека : DX50
Идентификатор кодека/Подсказка : DivX 5
Продолжительность : 2 м. 38 с.
Битрейт : 380 Кбит/сек
Ширина : 640 пикселей
Высота : 480 пикселей
Соотношение сторон : 4:3
Частота кадров : 25,000 кадров/сек
Цветовое пространство : YUV
Субдискретизация насыщенности : 4:2:0
Битовая глубина : 8 бит
Тип развёртки : Прогрессивная
Метод сжатия : С потерями
Бит/(ПикселиКадры) : 0.049
Размер потока : 7,20 Мбайт (73%)
Библиотека кодирования : Lavc51.40.4
Аудио
Идентификатор : 1
Формат : MPEG Audio
Версия формата : Version 1
Профиль формата : Layer 3
Режим : Joint stereo
Расширение режима : MS Stereo
Идентификатор кодека : 55
Идентификатор кодека/Подсказка : MP3
Продолжительность : 2 м. 39 с.
Вид битрейта : Постоянный
Битрейт : 128 Кбит/сек
Каналы : 2 канала
Частота : 44,1 КГц
Метод сжатия : С потерями
Размер потока : 2,43 Мбайт (25%)
Выравнивание : Соединение по промежуткам
Продолжительность промежутка : 26 мс. (0,65 видеокадр)
Библиотека кодирования : LAME3.97
Общее
Полное имя : C:\Download\Knitting For Beginners - Видеоуроки вязания спицами [2013]\БАЗОВЫЕ НАВЫКИ Урок – Способы вязания первой петли.avi
Формат : AVI
Формат/Информация : Audio Video Interleave
Размер файла : 32,8 Мбайт
Продолжительность : 8 м. 1 с.
Общий поток : 571 Кбит/сек
Программа кодирования : Lavf51.12.1
Видео
Идентификатор : 0
Формат : MPEG-4 Visual
Профиль формата : Simple@L1
Параметр BVOP формата : Нет
Параметр QPel формата : Нет
Параметр GMC формата : Без точки перехода
Параметр матрицы формата : Default (H.263)
Идентификатор кодека : DX50
Идентификатор кодека/Подсказка : DivX 5
Продолжительность : 8 м. 1 с.
Битрейт : 431 Кбит/сек
Ширина : 640 пикселей
Высота : 480 пикселей
Соотношение сторон : 4:3
Частота кадров : 25,000 кадров/сек
Цветовое пространство : YUV
Субдискретизация насыщенности : 4:2:0
Битовая глубина : 8 бит
Тип развёртки : Прогрессивная
Метод сжатия : С потерями
Бит/(ПикселиКадры) : 0.056
Размер потока : 24,7 Мбайт (75%)
Библиотека кодирования : Lavc51.40.4
Аудио
Идентификатор : 1
Формат : MPEG Audio
Версия формата : Version 1
Профиль формата : Layer 3
Режим : Joint stereo
Расширение режима : MS Stereo
Идентификатор кодека : 55
Идентификатор кодека/Подсказка : MP3
Продолжительность : 8 м. 1 с.
Вид битрейта : Постоянный
Битрейт : 128 Кбит/сек
Каналы : 2 канала
Частота : 44,1 КГц
Метод сжатия : С потерями
Размер потока : 7,35 Мбайт (22%)
Выравнивание : Соединение по промежуткам
Продолжительность промежутка : 26 мс. (0,65 видеокадр)
Библиотека кодирования : LAME3.97
Общее
Полное имя : C:\Download\Knitting For Beginners - Видеоуроки вязания спицами [2013]\БАЗОВЫЕ НАВЫКИ Урок – Набор петель - 1 способ. Норвежский метод.avi
Формат : AVI
Формат/Информация : Audio Video Interleave
Размер файла : 18,6 Мбайт
Продолжительность : 4 м. 29 с.
Общий поток : 578 Кбит/сек
Программа кодирования : Lavf51.12.1
Видео
Идентификатор : 0
Формат : MPEG-4 Visual
Профиль формата : Simple@L1
Параметр BVOP формата : Нет
Параметр QPel формата : Нет
Параметр GMC формата : Без точки перехода
Параметр матрицы формата : Default (H.263)
Идентификатор кодека : DX50
Идентификатор кодека/Подсказка : DivX 5
Продолжительность : 4 м. 29 с.
Битрейт : 438 Кбит/сек
Ширина : 640 пикселей
Высота : 480 пикселей
Соотношение сторон : 4:3
Частота кадров : 25,000 кадров/сек
Цветовое пространство : YUV
Субдискретизация насыщенности : 4:2:0
Битовая глубина : 8 бит
Тип развёртки : Прогрессивная
Метод сжатия : С потерями
Бит/(ПикселиКадры) : 0.057
Размер потока : 14,1 Мбайт (76%)
Библиотека кодирования : Lavc51.40.4
Аудио
Идентификатор : 1
Формат : MPEG Audio
Версия формата : Version 1
Профиль формата : Layer 3
Режим : Joint stereo
Расширение режима : MS Stereo
Идентификатор кодека : 55
Идентификатор кодека/Подсказка : MP3
Продолжительность : 4 м. 29 с.
Вид битрейта : Постоянный
Битрейт : 128 Кбит/сек
Каналы : 2 канала
Частота : 44,1 КГц
Метод сжатия : С потерями
Размер потока : 4,11 Мбайт (22%)
Выравнивание : Соединение по промежуткам
Продолжительность промежутка : 26 мс. (0,65 видеокадр)
Библиотека кодирования : LAME3.97
Общее
Полное имя : C:\Download\Knitting For Beginners - Видеоуроки вязания спицами [2013]\БАЗОВЫЕ НАВЫКИ Урок – Набор петель - 2 способ.avi
Формат : AVI
Формат/Информация : Audio Video Interleave
Размер файла : 13,5 Мбайт
Продолжительность : 3 м. 27 с.
Общий поток : 546 Кбит/сек
Программа кодирования : Lavf51.12.1
Видео
Идентификатор : 0
Формат : MPEG-4 Visual
Профиль формата : Simple@L1
Параметр BVOP формата : Нет
Параметр QPel формата : Нет
Параметр GMC формата : Без точки перехода
Параметр матрицы формата : Default (H.263)
Идентификатор кодека : DX50
Идентификатор кодека/Подсказка : DivX 5
Продолжительность : 3 м. 27 с.
Битрейт : 406 Кбит/сек
Ширина : 640 пикселей
Высота : 480 пикселей
Соотношение сторон : 4:3
Частота кадров : 25,000 кадров/сек
Цветовое пространство : YUV
Субдискретизация насыщенности : 4:2:0
Битовая глубина : 8 бит
Тип развёртки : Прогрессивная
Метод сжатия : С потерями
Бит/(ПикселиКадры) : 0.053
Размер потока : 10,0 Мбайт (74%)
Библиотека кодирования : Lavc51.40.4
Аудио
Идентификатор : 1
Формат : MPEG Audio
Версия формата : Version 1
Профиль формата : Layer 3
Режим : Joint stereo
Расширение режима : MS Stereo
Идентификатор кодека : 55
Идентификатор кодека/Подсказка : MP3
Продолжительность : 3 м. 27 с.
Вид битрейта : Постоянный
Битрейт : 128 Кбит/сек
Каналы : 2 канала
Частота : 44,1 КГц
Метод сжатия : С потерями
Размер потока : 3,17 Мбайт (23%)
Выравнивание : Соединение по промежуткам
Продолжительность промежутка : 26 мс. (0,65 видеокадр)
Библиотека кодирования : LAME3.97
Общее
Полное имя : C:\Download\Knitting For Beginners - Видеоуроки вязания спицами [2013]\БАЗОВЫЕ НАВЫКИ Урок – Набор петель - 3 способ.avi
Формат : AVI
Формат/Информация : Audio Video Interleave
Размер файла : 17,2 Мбайт
Продолжительность : 4 м. 15 с.
Общий поток : 565 Кбит/сек
Программа кодирования : Lavf51.12.1
Видео
Идентификатор : 0
Формат : MPEG-4 Visual
Профиль формата : Simple@L1
Параметр BVOP формата : Нет
Параметр QPel формата : Нет
Параметр GMC формата : Без точки перехода
Параметр матрицы формата : Default (H.263)
Идентификатор кодека : DX50
Идентификатор кодека/Подсказка : DivX 5
Продолжительность : 4 м. 15 с.
Битрейт : 425 Кбит/сек
Ширина : 640 пикселей
Высота : 480 пикселей
Соотношение сторон : 4:3
Частота кадров : 25,000 кадров/сек
Цветовое пространство : YUV
Субдискретизация насыщенности : 4:2:0
Битовая глубина : 8 бит
Тип развёртки : Прогрессивная
Метод сжатия : С потерями
Бит/(ПикселиКадры) : 0.055
Размер потока : 12,9 Мбайт (75%)
Библиотека кодирования : Lavc51.40.4
Аудио
Идентификатор : 1
Формат : MPEG Audio
Версия формата : Version 1
Профиль формата : Layer 3
Режим : Joint stereo
Расширение режима : MS Stereo
Идентификатор кодека : 55
Идентификатор кодека/Подсказка : MP3
Продолжительность : 4 м. 15 с.
Вид битрейта : Постоянный
Битрейт : 128 Кбит/сек
Каналы : 2 канала
Частота : 44,1 КГц
Метод сжатия : С потерями
Размер потока : 3,90 Мбайт (23%)
Выравнивание : Соединение по промежуткам
Продолжительность промежутка : 26 мс. (0,65 видеокадр)
Библиотека кодирования : LAME3.97
Общее
Полное имя : C:\Download\Knitting For Beginners - Видеоуроки вязания спицами [2013]\БАЗОВЫЕ НАВЫКИ Урок – Набор петель - 4 способ. С утолщенным краем.avi
Формат : AVI
Формат/Информация : Audio Video Interleave
Размер файла : 8,81 Мбайт
Продолжительность : 1 м. 53 с.
Общий поток : 653 Кбит/сек
Программа кодирования : Lavf51.12.1
Видео
Идентификатор : 0
Формат : MPEG-4 Visual
Профиль формата : Simple@L1
Параметр BVOP формата : Нет
Параметр QPel формата : Нет
Параметр GMC формата : Без точки перехода
Параметр матрицы формата : Default (H.263)
Идентификатор кодека : DX50
Идентификатор кодека/Подсказка : DivX 5
Продолжительность : 1 м. 53 с.
Битрейт : 513 Кбит/сек
Ширина : 640 пикселей
Высота : 480 пикселей
Соотношение сторон : 4:3
Частота кадров : 25,000 кадров/сек
Цветовое пространство : YUV
Субдискретизация насыщенности : 4:2:0
Битовая глубина : 8 бит
Тип развёртки : Прогрессивная
Метод сжатия : С потерями
Бит/(ПикселиКадры) : 0.067
Размер потока : 6,91 Мбайт (78%)
Библиотека кодирования : Lavc51.40.4
Аудио
Идентификатор : 1
Формат : MPEG Audio
Версия формата : Version 1
Профиль формата : Layer 3
Режим : Joint stereo
Расширение режима : MS Stereo
Идентификатор кодека : 55
Идентификатор кодека/Подсказка : MP3
Продолжительность : 1 м. 53 с.
Вид битрейта : Постоянный
Битрейт : 128 Кбит/сек
Каналы : 2 канала
Частота : 44,1 КГц
Метод сжатия : С потерями
Размер потока : 1,73 Мбайт (20%)
Выравнивание : Соединение по промежуткам
Продолжительность промежутка : 26 мс. (0,65 видеокадр)
Библиотека кодирования : LAME3.97
Общее
Полное имя : C:\Download\Knitting For Beginners - Видеоуроки вязания спицами [2013]\БАЗОВЫЕ НАВЫКИ Урок – Набор петель - 5 способ. Французский метод.avi
Формат : AVI
Формат/Информация : Audio Video Interleave
Размер файла : 14,7 Мбайт
Продолжительность : 3 м. 24 с.
Общий поток : 603 Кбит/сек
Программа кодирования : Lavf51.12.1
Видео
Идентификатор : 0
Формат : MPEG-4 Visual
Профиль формата : Simple@L1
Параметр BVOP формата : Нет
Параметр QPel формата : Нет
Параметр GMC формата : Без точки перехода
Параметр матрицы формата : Default (H.263)
Идентификатор кодека : DX50
Идентификатор кодека/Подсказка : DivX 5
Продолжительность : 3 м. 23 с.
Битрейт : 463 Кбит/сек
Ширина : 640 пикселей
Высота : 480 пикселей
Соотношение сторон : 4:3
Частота кадров : 25,000 кадров/сек
Цветовое пространство : YUV
Субдискретизация насыщенности : 4:2:0
Битовая глубина : 8 бит
Тип развёртки : Прогрессивная
Метод сжатия : С потерями
Бит/(ПикселиКадры) : 0.060
Размер потока : 11,3 Мбайт (77%)
Библиотека кодирования : Lavc51.40.4
Аудио
Идентификатор : 1
Формат : MPEG Audio
Версия формата : Version 1
Профиль формата : Layer 3
Режим : Joint stereo
Расширение режима : MS Stereo
Идентификатор кодека : 55
Идентификатор кодека/Подсказка : MP3
Продолжительность : 3 м. 24 с.
Вид битрейта : Постоянный
Битрейт : 128 Кбит/сек
Каналы : 2 канала
Частота : 44,1 КГц
Метод сжатия : С потерями
Размер потока : 3,11 Мбайт (21%)
Выравнивание : Соединение по промежуткам
Продолжительность промежутка : 26 мс. (0,65 видеокадр)
Библиотека кодирования : LAME3.97
Общее
Полное имя : C:\Download\Knitting For Beginners - Видеоуроки вязания спицами [2013]\БАЗОВЫЕ НАВЫКИ Урок – Набор петель - 6 способ. Крестообразный набор.avi
Формат : AVI
Формат/Информация : Audio Video Interleave
Размер файла : 17,3 Мбайт
Продолжительность : 4 м. 12 с.
Общий поток : 575 Кбит/сек
Программа кодирования : Lavf51.12.1
Видео
Идентификатор : 0
Формат : MPEG-4 Visual
Профиль формата : Simple@L1
Параметр BVOP формата : Нет
Параметр QPel формата : Нет
Параметр GMC формата : Без точки перехода
Параметр матрицы формата : Default (H.263)
Идентификатор кодека : DX50
Идентификатор кодека/Подсказка : DivX 5
Продолжительность : 4 м. 12 с.
Битрейт : 435 Кбит/сек
Ширина : 640 пикселей
Высота : 480 пикселей
Соотношение сторон : 4:3
Частота кадров : 25,000 кадров/сек
Цветовое пространство : YUV
Субдискретизация насыщенности : 4:2:0
Битовая глубина : 8 бит
Тип развёртки : Прогрессивная
Метод сжатия : С потерями
Бит/(ПикселиКадры) : 0.057
Размер потока : 13,1 Мбайт (76%)
Библиотека кодирования : Lavc51.40.4
Аудио
Идентификатор : 1
Формат : MPEG Audio
Версия формата : Version 1
Профиль формата : Layer 3
Режим : Joint stereo
Расширение режима : MS Stereo
Идентификатор кодека : 55
Идентификатор кодека/Подсказка : MP3
Продолжительность : 4 м. 12 с.
Вид битрейта : Постоянный
Битрейт : 128 Кбит/сек
Каналы : 2 канала
Частота : 44,1 КГц
Метод сжатия : С потерями
Размер потока : 3,86 Мбайт (22%)
Выравнивание : Соединение по промежуткам
Продолжительность промежутка : 26 мс. (0,65 видеокадр)
Библиотека кодирования : LAME3.97
Общее
Полное имя : C:\Download\Knitting For Beginners - Видеоуроки вязания спицами [2013]\БАЗОВЫЕ НАВЫКИ Урок – Набор петель - 7 способ. Крестообразный набор петель с утолщенным краем.avi
Формат : AVI
Формат/Информация : Audio Video Interleave
Размер файла : 19,7 Мбайт
Продолжительность : 4 м. 50 с.
Общий поток : 568 Кбит/сек
Программа кодирования : Lavf51.12.1
Видео
Идентификатор : 0
Формат : MPEG-4 Visual
Профиль формата : Simple@L1
Параметр BVOP формата : Нет
Параметр QPel формата : Нет
Параметр GMC формата : Без точки перехода
Параметр матрицы формата : Default (H.263)
Идентификатор кодека : DX50
Идентификатор кодека/Подсказка : DivX 5
Продолжительность : 4 м. 50 с.
Битрейт : 428 Кбит/сек
Ширина : 640 пикселей
Высота : 480 пикселей
Соотношение сторон : 4:3
Частота кадров : 25,000 кадров/сек
Цветовое пространство : YUV
Субдискретизация насыщенности : 4:2:0
Битовая глубина : 8 бит
Тип развёртки : Прогрессивная
Метод сжатия : С потерями
Бит/(ПикселиКадры) : 0.056
Размер потока : 14,8 Мбайт (75%)
Библиотека кодирования : Lavc51.40.4
Аудио
Идентификатор : 1
Формат : MPEG Audio
Версия формата : Version 1
Профиль формата : Layer 3
Режим : Joint stereo
Расширение режима : MS Stereo
Идентификатор кодека : 55
Идентификатор кодека/Подсказка : MP3
Продолжительность : 4 м. 50 с.
Вид битрейта : Постоянный
Битрейт : 128 Кбит/сек
Каналы : 2 канала
Частота : 44,1 КГц
Метод сжатия : С потерями
Размер потока : 4,43 Мбайт (23%)
Выравнивание : Соединение по промежуткам
Продолжительность промежутка : 26 мс. (0,65 видеокадр)
Библиотека кодирования : LAME3.97
Общее
Полное имя : C:\Download\Knitting For Beginners - Видеоуроки вязания спицами [2013]\БАЗОВЫЕ НАВЫКИ Урок – Набор петель - 8 способ. На цепочку из воздушных петель.avi
Формат : AVI
Формат/Информация : Audio Video Interleave
Размер файла : 7,65 Мбайт
Продолжительность : 2 м. 28 с.
Общий поток : 432 Кбит/сек
Программа кодирования : Lavf51.12.1
Видео
Идентификатор : 0
Формат : MPEG-4 Visual
Профиль формата : Simple@L1
Параметр BVOP формата : Нет
Параметр QPel формата : Нет
Параметр GMC формата : Без точки перехода
Параметр матрицы формата : Default (H.263)
Идентификатор кодека : DX50
Идентификатор кодека/Подсказка : DivX 5
Продолжительность : 2 м. 28 с.
Битрейт : 291 Кбит/сек
Ширина : 480 пикселей
Высота : 360 пикселей
Соотношение сторон : 4:3
Частота кадров : 25,000 кадров/сек
Цветовое пространство : YUV
Субдискретизация насыщенности : 4:2:0
Битовая глубина : 8 бит
Тип развёртки : Прогрессивная
Метод сжатия : С потерями
Бит/(ПикселиКадры) : 0.067
Размер потока : 5,16 Мбайт (67%)
Библиотека кодирования : Lavc51.40.4
Аудио
Идентификатор : 1
Формат : MPEG Audio
Версия формата : Version 1
Профиль формата : Layer 3
Режим : Joint stereo
Расширение режима : MS Stereo
Идентификатор кодека : 55
Идентификатор кодека/Подсказка : MP3
Продолжительность : 2 м. 28 с.
Вид битрейта : Постоянный
Битрейт : 128 Кбит/сек
Каналы : 2 канала
Частота : 44,1 КГц
Метод сжатия : С потерями
Размер потока : 2,27 Мбайт (30%)
Выравнивание : Соединение по промежуткам
Продолжительность промежутка : 26 мс. (0,65 видеокадр)
Библиотека кодирования : LAME3.97
Общее
Полное имя : C:\Download\Knitting For Beginners - Видеоуроки вязания спицами [2013]\БАЗОВЫЕ НАВЫКИ Урок – Набор петель - 9 способ. От рабочей нитки.avi
Формат : AVI
Формат/Информация : Audio Video Interleave
Размер файла : 9,75 Мбайт
Продолжительность : 3 м. 8 с.
Общий поток : 433 Кбит/сек
Программа кодирования : Lavf51.12.1
Видео
Идентификатор : 0
Формат : MPEG-4 Visual
Профиль формата : Simple@L1
Параметр BVOP формата : Нет
Параметр QPel формата : Нет
Параметр GMC формата : Без точки перехода
Параметр матрицы формата : Default (H.263)
Идентификатор кодека : DX50
Идентификатор кодека/Подсказка : DivX 5
Продолжительность : 3 м. 8 с.
Битрейт : 292 Кбит/сек
Ширина : 480 пикселей
Высота : 360 пикселей
Соотношение сторон : 4:3
Частота кадров : 25,000 кадров/сек
Цветовое пространство : YUV
Субдискретизация насыщенности : 4:2:0
Битовая глубина : 8 бит
Тип развёртки : Прогрессивная
Метод сжатия : С потерями
Бит/(ПикселиКадры) : 0.068
Размер потока : 6,58 Мбайт (67%)
Библиотека кодирования : Lavc51.40.4
Аудио
Идентификатор : 1
Формат : MPEG Audio
Версия формата : Version 1
Профиль формата : Layer 3
Режим : Joint stereo
Расширение режима : MS Stereo
Идентификатор кодека : 55
Идентификатор кодека/Подсказка : MP3
Продолжительность : 3 м. 8 с.
Вид битрейта : Постоянный
Битрейт : 128 Кбит/сек
Каналы : 2 канала
Частота : 44,1 КГц
Метод сжатия : С потерями
Размер потока : 2,88 Мбайт (30%)
Выравнивание : Соединение по промежуткам
Продолжительность промежутка : 26 мс. (0,65 видеокадр)
Библиотека кодирования : LAME3.97
Общее
Полное имя : C:\Download\Knitting For Beginners - Видеоуроки вязания спицами [2013]\БАЗОВЫЕ НАВЫКИ Урок – Набор петель - 10 способ. Итальянский.avi
Формат : AVI
Формат/Информация : Audio Video Interleave
Размер файла : 9,19 Мбайт
Продолжительность : 3 м. 0 с.
Общий поток : 428 Кбит/сек
Программа кодирования : Lavf51.12.1
Видео
Идентификатор : 0
Формат : MPEG-4 Visual
Профиль формата : Simple@L1
Параметр BVOP формата : Нет
Параметр QPel формата : Нет
Параметр GMC формата : Без точки перехода
Параметр матрицы формата : Default (H.263)
Идентификатор кодека : DX50
Идентификатор кодека/Подсказка : DivX 5
Продолжительность : 3 м. 0 с.
Битрейт : 288 Кбит/сек
Ширина : 480 пикселей
Высота : 360 пикселей
Соотношение сторон : 4:3
Частота кадров : 25,000 кадров/сек
Цветовое пространство : YUV
Субдискретизация насыщенности : 4:2:0
Битовая глубина : 8 бит
Тип развёртки : Прогрессивная
Метод сжатия : С потерями
Бит/(ПикселиКадры) : 0.067
Размер потока : 6,17 Мбайт (67%)
Библиотека кодирования : Lavc51.40.4
Аудио
Идентификатор : 1
Формат : MPEG Audio
Версия формата : Version 1
Профиль формата : Layer 3
Режим : Joint stereo
Расширение режима : MS Stereo
Идентификатор кодека : 55
Идентификатор кодека/Подсказка : MP3
Продолжительность : 3 м. 0 с.
Вид битрейта : Постоянный
Битрейт : 128 Кбит/сек
Каналы : 2 канала
Частота : 44,1 КГц
Метод сжатия : С потерями
Размер потока : 2,75 Мбайт (30%)
Выравнивание : Соединение по промежуткам
Продолжительность промежутка : 26 мс. (0,65 видеокадр)
Библиотека кодирования : LAME3.97
Общее
Полное имя : C:\Download\Knitting For Beginners - Видеоуроки вязания спицами [2013]\БАЗОВЫЕ НАВЫКИ Урок – Набор петель - 11 способ. С указательного пальца правой руки.avi
Формат : AVI
Формат/Информация : Audio Video Interleave
Размер файла : 10,3 Мбайт
Продолжительность : 2 м. 36 с.
Общий поток : 554 Кбит/сек
Программа кодирования : Lavf51.12.1
Видео
Идентификатор : 0
Формат : MPEG-4 Visual
Профиль формата : Simple@L1
Параметр BVOP формата : Нет
Параметр QPel формата : Нет
Параметр GMC формата : Без точки перехода
Параметр матрицы формата : Default (H.263)
Идентификатор кодека : DX50
Идентификатор кодека/Подсказка : DivX 5
Продолжительность : 2 м. 36 с.
Битрейт : 414 Кбит/сек
Ширина : 640 пикселей
Высота : 480 пикселей
Соотношение сторон : 4:3
Частота кадров : 25,000 кадров/сек
Цветовое пространство : YUV
Субдискретизация насыщенности : 4:2:0
Битовая глубина : 8 бит
Тип развёртки : Прогрессивная
Метод сжатия : С потерями
Бит/(ПикселиКадры) : 0.054
Размер потока : 7,71 Мбайт (75%)
Библиотека кодирования : Lavc51.40.4
Аудио
Идентификатор : 1
Формат : MPEG Audio
Версия формата : Version 1
Профиль формата : Layer 3
Режим : Joint stereo
Расширение режима : MS Stereo
Идентификатор кодека : 55
Идентификатор кодека/Подсказка : MP3
Продолжительность : 2 м. 36 с.
Вид битрейта : Постоянный
Битрейт : 128 Кбит/сек
Каналы : 2 канала
Частота : 44,1 КГц
Метод сжатия : С потерями
Размер потока : 2,39 Мбайт (23%)
Выравнивание : Соединение по промежуткам
Продолжительность промежутка : 26 мс. (0,65 видеокадр)
Библиотека кодирования : LAME3.97
Общее
Полное имя : C:\Download\Knitting For Beginners - Видеоуроки вязания спицами [2013]\БАЗОВЫЕ НАВЫКИ Урок – Набор петель - 12 способ. С образованием косички.avi
Формат : AVI
Формат/Информация : Audio Video Interleave
Размер файла : 16,0 Мбайт
Продолжительность : 3 м. 23 с.
Общий поток : 661 Кбит/сек
Программа кодирования : Lavf51.12.1
Видео
Идентификатор : 0
Формат : MPEG-4 Visual
Профиль формата : Simple@L1
Параметр BVOP формата : Нет
Параметр QPel формата : Нет
Параметр GMC формата : Без точки перехода
Параметр матрицы формата : Default (H.263)
Идентификатор кодека : DX50
Идентификатор кодека/Подсказка : DivX 5
Продолжительность : 3 м. 23 с.
Битрейт : 521 Кбит/сек
Ширина : 640 пикселей
Высота : 480 пикселей
Соотношение сторон : 4:3
Частота кадров : 25,000 кадров/сек
Цветовое пространство : YUV
Субдискретизация насыщенности : 4:2:0
Битовая глубина : 8 бит
Тип развёртки : Прогрессивная
Метод сжатия : С потерями
Бит/(ПикселиКадры) : 0.068
Размер потока : 12,6 Мбайт (79%)
Библиотека кодирования : Lavc51.40.4
Аудио
Идентификатор : 1
Формат : MPEG Audio
Версия формата : Version 1
Профиль формата : Layer 3
Режим : Joint stereo
Расширение режима : MS Stereo
Идентификатор кодека : 55
Идентификатор кодека/Подсказка : MP3
Продолжительность : 3 м. 23 с.
Вид битрейта : Постоянный
Битрейт : 128 Кбит/сек
Каналы : 2 канала
Частота : 44,1 КГц
Метод сжатия : С потерями
Размер потока : 3,10 Мбайт (19%)
Выравнивание : Соединение по промежуткам
Продолжительность промежутка : 26 мс. (0,65 видеокадр)
Библиотека кодирования : LAME3.97
Общее
Полное имя : C:\Download\Knitting For Beginners - Видеоуроки вязания спицами [2013]\БАЗОВЫЕ НАВЫКИ Урок – Набор петель - 13 способ. Перекрёстный набор.avi
Формат : AVI
Формат/Информация : Audio Video Interleave
Размер файла : 20,3 Мбайт
Продолжительность : 4 м. 55 с.
Общий поток : 576 Кбит/сек
Программа кодирования : Lavf51.12.1
Видео
Идентификатор : 0
Формат : MPEG-4 Visual
Профиль формата : Simple@L1
Параметр BVOP формата : Нет
Параметр QPel формата : Нет
Параметр GMC формата : Без точки перехода
Параметр матрицы формата : Default (H.263)
Идентификатор кодека : DX50
Идентификатор кодека/Подсказка : DivX 5
Продолжительность : 4 м. 55 с.
Битрейт : 435 Кбит/сек
Ширина : 640 пикселей
Высота : 480 пикселей
Соотношение сторон : 4:3
Частота кадров : 25,000 кадров/сек
Цветовое пространство : YUV
Субдискретизация насыщенности : 4:2:0
Битовая глубина : 8 бит
Тип развёртки : Прогрессивная
Метод сжатия : С потерями
Бит/(ПикселиКадры) : 0.057
Размер потока : 15,3 Мбайт (76%)
Библиотека кодирования : Lavc51.40.4
Аудио
Идентификатор : 1
Формат : MPEG Audio
Версия формата : Version 1
Профиль формата : Layer 3
Режим : Joint stereo
Расширение режима : MS Stereo
Идентификатор кодека : 55
Идентификатор кодека/Подсказка : MP3
Продолжительность : 4 м. 55 с.
Вид битрейта : Постоянный
Битрейт : 128 Кбит/сек
Каналы : 2 канала
Частота : 44,1 КГц
Метод сжатия : С потерями
Размер потока : 4,51 Мбайт (22%)
Выравнивание : Соединение по промежуткам
Продолжительность промежутка : 26 мс. (0,65 видеокадр)
Библиотека кодирования : LAME3.97
Общее
Полное имя : C:\Download\Knitting For Beginners - Видеоуроки вязания спицами [2013]\БАЗОВЫЕ НАВЫКИ Урок – Набор петель - 14 способ. Витой немецкий набор.avi
Формат : AVI
Формат/Информация : Audio Video Interleave
Размер файла : 16,2 Мбайт
Продолжительность : 3 м. 56 с.
Общий поток : 573 Кбит/сек
Программа кодирования : Lavf51.12.1
Видео
Идентификатор : 0
Формат : MPEG-4 Visual
Профиль формата : Simple@L1
Параметр BVOP формата : Нет
Параметр QPel формата : Нет
Параметр GMC формата : Без точки перехода
Параметр матрицы формата : Default (H.263)
Идентификатор кодека : DX50
Идентификатор кодека/Подсказка : DivX 5
Продолжительность : 3 м. 56 с.
Битрейт : 433 Кбит/сек
Ширина : 640 пикселей
Высота : 480 пикселей
Соотношение сторон : 4:3
Частота кадров : 25,000 кадров/сек
Цветовое пространство : YUV
Субдискретизация насыщенности : 4:2:0
Битовая глубина : 8 бит
Тип развёртки : Прогрессивная
Метод сжатия : С потерями
Бит/(ПикселиКадры) : 0.056
Размер потока : 12,2 Мбайт (75%)
Библиотека кодирования : Lavc51.40.4
Аудио
Идентификатор : 1
Формат : MPEG Audio
Версия формата : Version 1
Профиль формата : Layer 3
Режим : Joint stereo
Расширение режима : MS Stereo
Идентификатор кодека : 55
Идентификатор кодека/Подсказка : MP3
Продолжительность : 3 м. 56 с.
Вид битрейта : Постоянный
Битрейт : 128 Кбит/сек
Каналы : 2 канала
Частота : 44,1 КГц
Метод сжатия : С потерями
Размер потока : 3,61 Мбайт (22%)
Выравнивание : Соединение по промежуткам
Продолжительность промежутка : 26 мс. (0,65 видеокадр)
Библиотека кодирования : LAME3.97
Общее
Полное имя : C:\Download\Knitting For Beginners - Видеоуроки вязания спицами [2013]\БАЗОВЫЕ НАВЫКИ Урок – Набор петель - 15 способ. Набор с помощью крючка.avi
Формат : AVI
Формат/Информация : Audio Video Interleave
Размер файла : 8,51 Мбайт
Продолжительность : 2 м. 30 с.
Общий поток : 473 Кбит/сек
Программа кодирования : Lavf51.12.1
Видео
Идентификатор : 0
Формат : MPEG-4 Visual
Профиль формата : Simple@L1
Параметр BVOP формата : Нет
Параметр QPel формата : Нет
Параметр GMC формата : Без точки перехода
Параметр матрицы формата : Default (H.263)
Идентификатор кодека : DX50
Идентификатор кодека/Подсказка : DivX 5
Продолжительность : 2 м. 30 с.
Битрейт : 332 Кбит/сек
Ширина : 480 пикселей
Высота : 360 пикселей
Соотношение сторон : 4:3
Частота кадров : 25,000 кадров/сек
Цветовое пространство : YUV
Субдискретизация насыщенности : 4:2:0
Битовая глубина : 8 бит
Тип развёртки : Прогрессивная
Метод сжатия : С потерями
Бит/(ПикселиКадры) : 0.077
Размер потока : 5,98 Мбайт (70%)
Библиотека кодирования : Lavc51.40.4
Аудио
Идентификатор : 1
Формат : MPEG Audio
Версия формата : Version 1
Профиль формата : Layer 3
Режим : Joint stereo
Расширение режима : MS Stereo
Идентификатор кодека : 55
Идентификатор кодека/Подсказка : MP3
Продолжительность : 2 м. 30 с.
Вид битрейта : Постоянный
Битрейт : 128 Кбит/сек
Каналы : 2 канала
Частота : 44,1 КГц
Метод сжатия : С потерями
Размер потока : 2,30 Мбайт (27%)
Выравнивание : Соединение по промежуткам
Продолжительность промежутка : 26 мс. (0,65 видеокадр)
Библиотека кодирования : LAME3.97
Общее
Полное имя : C:\Download\Knitting For Beginners - Видеоуроки вязания спицами [2013]\БАЗОВЫЕ НАВЫКИ Урок – Набор петель - 16 способ. С перекидом.avi
Формат : AVI
Формат/Информация : Audio Video Interleave
Размер файла : 12,3 Мбайт
Продолжительность : 3 м. 7 с.
Общий поток : 553 Кбит/сек
Программа кодирования : Lavf51.12.1
Видео
Идентификатор : 0
Формат : MPEG-4 Visual
Профиль формата : Simple@L1
Параметр BVOP формата : Нет
Параметр QPel формата : Нет
Параметр GMC формата : Без точки перехода
Параметр матрицы формата : Default (H.263)
Идентификатор кодека : DX50
Идентификатор кодека/Подсказка : DivX 5
Продолжительность : 3 м. 7 с.
Битрейт : 413 Кбит/сек
Ширина : 640 пикселей
Высота : 480 пикселей
Соотношение сторон : 4:3
Частота кадров : 25,000 кадров/сек
Цветовое пространство : YUV
Субдискретизация насыщенности : 4:2:0
Битовая глубина : 8 бит
Тип развёртки : Прогрессивная
Метод сжатия : С потерями
Бит/(ПикселиКадры) : 0.054
Размер потока : 9,20 Мбайт (75%)
Библиотека кодирования : Lavc51.40.4
Аудио
Идентификатор : 1
Формат : MPEG Audio
Версия формата : Version 1
Профиль формата : Layer 3
Режим : Joint stereo
Расширение режима : MS Stereo
Идентификатор кодека : 55
Идентификатор кодека/Подсказка : MP3
Продолжительность : 3 м. 7 с.
Вид битрейта : Постоянный
Битрейт : 128 Кбит/сек
Каналы : 2 канала
Частота : 44,1 КГц
Метод сжатия : С потерями
Размер потока : 2,86 Мбайт (23%)
Выравнивание : Соединение по промежуткам
Продолжительность промежутка : 26 мс. (0,65 видеокадр)
Библиотека кодирования : LAME3.97
Общее
Полное имя : C:\Download\Knitting For Beginners - Видеоуроки вязания спицами [2013]\БАЗОВЫЕ НАВЫКИ Урок – Набор петель - 17-25 способ. Воздушными петлями.avi
Формат : AVI
Формат/Информация : Audio Video Interleave
Размер файла : 27,8 Мбайт
Продолжительность : 6 м. 56 с.
Общий поток : 560 Кбит/сек
Программа кодирования : Lavf51.12.1
Видео
Идентификатор : 0
Формат : MPEG-4 Visual
Профиль формата : Simple@L1
Параметр BVOP формата : Нет
Параметр QPel формата : Нет
Параметр GMC формата : Без точки перехода
Параметр матрицы формата : Default (H.263)
Идентификатор кодека : DX50
Идентификатор кодека/Подсказка : DivX 5
Продолжительность : 6 м. 56 с.
Битрейт : 420 Кбит/сек
Ширина : 640 пикселей
Высота : 480 пикселей
Соотношение сторон : 4:3
Частота кадров : 25,000 кадров/сек
Цветовое пространство : YUV
Субдискретизация насыщенности : 4:2:0
Битовая глубина : 8 бит
Тип развёртки : Прогрессивная
Метод сжатия : С потерями
Бит/(ПикселиКадры) : 0.055
Размер потока : 20,8 Мбайт (75%)
Библиотека кодирования : Lavc51.40.4
Аудио
Идентификатор : 1
Формат : MPEG Audio
Версия формата : Version 1
Профиль формата : Layer 3
Режим : Joint stereo
Расширение режима : MS Stereo
Идентификатор кодека : 55
Идентификатор кодека/Подсказка : MP3
Продолжительность : 6 м. 56 с.
Вид битрейта : Постоянный
Битрейт : 128 Кбит/сек
Каналы : 2 канала
Частота : 44,1 КГц
Метод сжатия : С потерями
Размер потока : 6,36 Мбайт (23%)
Выравнивание : Соединение по промежуткам
Продолжительность промежутка : 26 мс. (0,65 видеокадр)
Библиотека кодирования : LAME3.97
Общее
Полное имя : C:\Download\Knitting For Beginners - Видеоуроки вязания спицами [2013]\БАЗОВЫЕ НАВЫКИ Урок – Набор петель - 26 способ.avi
Формат : AVI
Формат/Информация : Audio Video Interleave
Размер файла : 18,2 Мбайт
Продолжительность : 3 м. 51 с.
Общий поток : 659 Кбит/сек
Программа кодирования : Lavf51.12.1
Видео
Идентификатор : 0
Формат : MPEG-4 Visual
Профиль формата : Simple@L1
Параметр BVOP формата : Нет
Параметр QPel формата : Нет
Параметр GMC формата : Без точки перехода
Параметр матрицы формата : Default (H.263)
Идентификатор кодека : DX50
Идентификатор кодека/Подсказка : DivX 5
Продолжительность : 3 м. 51 с.
Битрейт : 519 Кбит/сек
Ширина : 640 пикселей
Высота : 480 пикселей
Соотношение сторон : 4:3
Частота кадров : 25,000 кадров/сек
Цветовое пространство : YUV
Субдискретизация насыщенности : 4:2:0
Битовая глубина : 8 бит
Тип развёртки : Прогрессивная
Метод сжатия : С потерями
Бит/(ПикселиКадры) : 0.068
Размер потока : 14,3 Мбайт (79%)
Библиотека кодирования : Lavc51.40.4
Аудио
Идентификатор : 1
Формат : MPEG Audio
Версия формата : Version 1
Профиль формата : Layer 3
Режим : Joint stereo
Расширение режима : MS Stereo
Идентификатор кодека : 55
Идентификатор кодека/Подсказка : MP3
Продолжительность : 3 м. 51 с.
Вид битрейта : Постоянный
Битрейт : 128 Кбит/сек
Каналы : 2 канала
Частота : 44,1 КГц
Метод сжатия : С потерями
Размер потока : 3,54 Мбайт (19%)
Выравнивание : Соединение по промежуткам
Продолжительность промежутка : 26 мс. (0,65 видеокадр)
Библиотека кодирования : LAME3.97
Общее
Полное имя : C:\Download\Knitting For Beginners - Видеоуроки вязания спицами [2013]\БАЗОВЫЕ НАВЫКИ Урок – Набор петель - 27 способ. С открытыми петлями на кольцевые спицы.avi
Формат : AVI
Формат/Информация : Audio Video Interleave
Размер файла : 17,7 Мбайт
Продолжительность : 4 м. 15 с.
Общий поток : 581 Кбит/сек
Программа кодирования : Lavf51.12.1
Видео
Идентификатор : 0
Формат : MPEG-4 Visual
Профиль формата : Simple@L1
Параметр BVOP формата : Нет
Параметр QPel формата : Нет
Параметр GMC формата : Без точки перехода
Параметр матрицы формата : Default (H.263)
Идентификатор кодека : DX50
Идентификатор кодека/Подсказка : DivX 5
Продолжительность : 4 м. 15 с.
Битрейт : 441 Кбит/сек
Ширина : 640 пикселей
Высота : 480 пикселей
Соотношение сторон : 4:3
Частота кадров : 25,000 кадров/сек
Цветовое пространство : YUV
Субдискретизация насыщенности : 4:2:0
Битовая глубина : 8 бит
Тип развёртки : Прогрессивная
Метод сжатия : С потерями
Бит/(ПикселиКадры) : 0.057
Размер потока : 13,4 Мбайт (76%)
Библиотека кодирования : Lavc51.40.4
Аудио
Идентификатор : 1
Формат : MPEG Audio
Версия формата : Version 1
Профиль формата : Layer 3
Режим : Joint stereo
Расширение режима : MS Stereo
Идентификатор кодека : 55
Идентификатор кодека/Подсказка : MP3
Продолжительность : 4 м. 15 с.
Вид битрейта : Постоянный
Битрейт : 128 Кбит/сек
Каналы : 2 канала
Частота : 44,1 КГц
Метод сжатия : С потерями
Размер потока : 3,90 Мбайт (22%)
Выравнивание : Соединение по промежуткам
Продолжительность промежутка : 26 мс. (0,65 видеокадр)
Библиотека кодирования : LAME3.97
Общее
Полное имя : C:\Download\Knitting For Beginners - Видеоуроки вязания спицами [2013]\БАЗОВЫЕ НАВЫКИ Урок – Набор петель - 28 способ. С открытыми петлями на дополнительную нить.avi
Формат : AVI
Формат/Информация : Audio Video Interleave
Размер файла : 18,1 Мбайт
Продолжительность : 3 м. 45 с.
Общий поток : 676 Кбит/сек
Программа кодирования : Lavf51.12.1
Видео
Идентификатор : 0
Формат : MPEG-4 Visual
Профиль формата : Simple@L1
Параметр BVOP формата : Нет
Параметр QPel формата : Нет
Параметр GMC формата : Без точки перехода
Параметр матрицы формата : Default (H.263)
Идентификатор кодека : DX50
Идентификатор кодека/Подсказка : DivX 5
Продолжительность : 3 м. 45 с.
Битрейт : 535 Кбит/сек
Ширина : 640 пикселей
Высота : 480 пикселей
Соотношение сторон : 4:3
Частота кадров : 25,000 кадров/сек
Цветовое пространство : YUV
Субдискретизация насыщенности : 4:2:0
Битовая глубина : 8 бит
Тип развёртки : Прогрессивная
Метод сжатия : С потерями
Бит/(ПикселиКадры) : 0.070
Размер потока : 14,4 Мбайт (79%)
Библиотека кодирования : Lavc51.40.4
Аудио
Идентификатор : 1
Формат : MPEG Audio
Версия формата : Version 1
Профиль формата : Layer 3
Режим : Joint stereo
Расширение режима : MS Stereo
Идентификатор кодека : 55
Идентификатор кодека/Подсказка : MP3
Продолжительность : 3 м. 45 с.
Вид битрейта : Постоянный
Битрейт : 128 Кбит/сек
Каналы : 2 канала
Частота : 44,1 КГц
Метод сжатия : С потерями
Размер потока : 3,44 Мбайт (19%)
Выравнивание : Соединение по промежуткам
Продолжительность промежутка : 26 мс. (0,65 видеокадр)
Библиотека кодирования : LAME3.97
Общее
Полное имя : C:\Download\Knitting For Beginners - Видеоуроки вязания спицами [2013]\БАЗОВЫЕ НАВЫКИ Урок – Набор петель. Лицевая петля - За переднюю стенку петли. 1 способ.avi
Формат : AVI
Формат/Информация : Audio Video Interleave
Размер файла : 19,7 Мбайт
Продолжительность : 5 м. 4 с.
Общий поток : 542 Кбит/сек
Программа кодирования : Lavf51.12.1
Видео
Идентификатор : 0
Формат : MPEG-4 Visual
Профиль формата : Simple@L1
Параметр BVOP формата : Нет
Параметр QPel формата : Нет
Параметр GMC формата : Без точки перехода
Параметр матрицы формата : Default (H.263)
Идентификатор кодека : DX50
Идентификатор кодека/Подсказка : DivX 5
Продолжительность : 5 м. 4 с.
Битрейт : 401 Кбит/сек
Ширина : 640 пикселей
Высота : 480 пикселей
Соотношение сторон : 4:3
Частота кадров : 25,000 кадров/сек
Цветовое пространство : YUV
Субдискретизация насыщенности : 4:2:0
Битовая глубина : 8 бит
Тип развёртки : Прогрессивная
Метод сжатия : С потерями
Бит/(ПикселиКадры) : 0.052
Размер потока : 14,6 Мбайт (74%)
Библиотека кодирования : Lavc51.40.4
Аудио
Идентификатор : 1
Формат : MPEG Audio
Версия формата : Version 1
Профиль формата : Layer 3
Режим : Joint stereo
Расширение режима : MS Stereo
Идентификатор кодека : 55
Идентификатор кодека/Подсказка : MP3
Продолжительность : 5 м. 4 с.
Вид битрейта : Постоянный
Битрейт : 128 Кбит/сек
Каналы : 2 канала
Частота : 44,1 КГц
Метод сжатия : С потерями
Размер потока : 4,65 Мбайт (24%)
Выравнивание : Соединение по промежуткам
Продолжительность промежутка : 26 мс. (0,65 видеокадр)
Библиотека кодирования : LAME3.97
Общее
Полное имя : C:\Download\Knitting For Beginners - Видеоуроки вязания спицами [2013]\БАЗОВЫЕ НАВЫКИ Урок – Набор петель. Лицевая петля - За заднюю стенку петли. 3 способ.avi
Формат : AVI
Формат/Информация : Audio Video Interleave
Размер файла : 20,8 Мбайт
Продолжительность : 5 м. 19 с.
Общий поток : 546 Кбит/сек
Программа кодирования : Lavf51.12.1
Видео
Идентификатор : 0
Формат : MPEG-4 Visual
Профиль формата : Simple@L1
Параметр BVOP формата : Нет
Параметр QPel формата : Нет
Параметр GMC формата : Без точки перехода
Параметр матрицы формата : Default (H.263)
Идентификатор кодека : DX50
Идентификатор кодека/Подсказка : DivX 5
Продолжительность : 5 м. 19 с.
Битрейт : 406 Кбит/сек
Ширина : 640 пикселей
Высота : 480 пикселей
Соотношение сторон : 4:3
Частота кадров : 25,000 кадров/сек
Цветовое пространство : YUV
Субдискретизация насыщенности : 4:2:0
Битовая глубина : 8 бит
Тип развёртки : Прогрессивная
Метод сжатия : С потерями
Бит/(ПикселиКадры) : 0.053
Размер потока : 15,4 Мбайт (74%)
Библиотека кодирования : Lavc51.40.4
Аудио
Идентификатор : 1
Формат : MPEG Audio
Версия формата : Version 1
Профиль формата : Layer 3
Режим : Joint stereo
Расширение режима : MS Stereo
Идентификатор кодека : 55
Идентификатор кодека/Подсказка : MP3
Продолжительность : 5 м. 19 с.
Вид битрейта : Постоянный
Битрейт : 128 Кбит/сек
Каналы : 2 канала
Частота : 44,1 КГц
Метод сжатия : С потерями
Размер потока : 4,87 Мбайт (23%)
Выравнивание : Соединение по промежуткам
Продолжительность промежутка : 26 мс. (0,65 видеокадр)
Библиотека кодирования : LAME3.97
Общее
Полное имя : C:\Download\Knitting For Beginners - Видеоуроки вязания спицами [2013]\БАЗОВЫЕ НАВЫКИ Урок – Набор петель. Лицевая петля - За переднюю стенку петли. 5 способ.avi
Формат : AVI
Формат/Информация : Audio Video Interleave
Размер файла : 14,2 Мбайт
Продолжительность : 3 м. 35 с.
Общий поток : 554 Кбит/сек
Программа кодирования : Lavf51.12.1
Видео
Идентификатор : 0
Формат : MPEG-4 Visual
Профиль формата : Simple@L1
Параметр BVOP формата : Нет
Параметр QPel формата : Нет
Параметр GMC формата : Без точки перехода
Параметр матрицы формата : Default (H.263)
Идентификатор кодека : DX50
Идентификатор кодека/Подсказка : DivX 5
Продолжительность : 3 м. 34 с.
Битрейт : 414 Кбит/сек
Ширина : 640 пикселей
Высота : 480 пикселей
Соотношение сторон : 4:3
Частота кадров : 25,000 кадров/сек
Цветовое пространство : YUV
Субдискретизация насыщенности : 4:2:0
Битовая глубина : 8 бит
Тип развёртки : Прогрессивная
Метод сжатия : С потерями
Бит/(ПикселиКадры) : 0.054
Размер потока : 10,6 Мбайт (75%)
Библиотека кодирования : Lavc51.40.4
Аудио
Идентификатор : 1
Формат : MPEG Audio
Версия формата : Version 1
Профиль формата : Layer 3
Режим : Joint stereo
Расширение режима : MS Stereo
Идентификатор кодека : 55
Идентификатор кодека/Подсказка : MP3
Продолжительность : 3 м. 35 с.
Вид битрейта : Постоянный
Битрейт : 128 Кбит/сек
Каналы : 2 канала
Частота : 44,1 КГц
Метод сжатия : С потерями
Размер потока : 3,28 Мбайт (23%)
Выравнивание : Соединение по промежуткам
Продолжительность промежутка : 26 мс. (0,65 видеокадр)
Библиотека кодирования : LAME3.97
Общее
Полное имя : C:\Download\Knitting For Beginners - Видеоуроки вязания спицами [2013]\БАЗОВЫЕ НАВЫКИ Урок – Набор петель. Лицевая петля - За заднюю стенку петли. 7 способ.avi
Формат : AVI
Формат/Информация : Audio Video Interleave
Размер файла : 13,6 Мбайт
Продолжительность : 3 м. 24 с.
Общий поток : 559 Кбит/сек
Программа кодирования : Lavf51.12.1
Видео
Идентификатор : 0
Формат : MPEG-4 Visual
Профиль формата : Simple@L1
Параметр BVOP формата : Нет
Параметр QPel формата : Нет
Параметр GMC формата : Без точки перехода
Параметр матрицы формата : Default (H.263)
Идентификатор кодека : DX50
Идентификатор кодека/Подсказка : DivX 5
Продолжительность : 3 м. 24 с.
Битрейт : 418 Кбит/сек
Ширина : 640 пикселей
Высота : 480 пикселей
Соотношение сторон : 4:3
Частота кадров : 25,000 кадров/сек
Цветовое пространство : YUV
Субдискретизация насыщенности : 4:2:0
Битовая глубина : 8 бит
Тип развёртки : Прогрессивная
Метод сжатия : С потерями
Бит/(ПикселиКадры) : 0.054
Размер потока : 10,2 Мбайт (75%)
Библиотека кодирования : Lavc51.40.4
Аудио
Идентификатор : 1
Формат : MPEG Audio
Версия формата : Version 1
Профиль формата : Layer 3
Режим : Joint stereo
Расширение режима : MS Stereo
Идентификатор кодека : 55
Идентификатор кодека/Подсказка : MP3
Продолжительность : 3 м. 24 с.
Вид битрейта : Постоянный
Битрейт : 128 Кбит/сек
Каналы : 2 канала
Частота : 44,1 КГц
Метод сжатия : С потерями
Размер потока : 3,12 Мбайт (23%)
Выравнивание : Соединение по промежуткам
Продолжительность промежутка : 26 мс. (0,65 видеокадр)
Библиотека кодирования : LAME3.97
Общее
Полное имя : C:\Download\Knitting For Beginners - Видеоуроки вязания спицами [2013]\БАЗОВЫЕ НАВЫКИ Урок – Набор петель. Лицевая петля - За переднюю стенку петли. Английский метод. 9 способ.avi
Формат : AVI
Формат/Информация : Audio Video Interleave
Размер файла : 19,4 Мбайт
Продолжительность : 5 м. 3 с.
Общий поток : 536 Кбит/сек
Программа кодирования : Lavf51.12.1
Видео
Идентификатор : 0
Формат : MPEG-4 Visual
Профиль формата : Simple@L1
Параметр BVOP формата : Нет
Параметр QPel формата : Нет
Параметр GMC формата : Без точки перехода
Параметр матрицы формата : Default (H.263)
Идентификатор кодека : DX50
Идентификатор кодека/Подсказка : DivX 5
Продолжительность : 5 м. 3 с.
Битрейт : 396 Кбит/сек
Ширина : 640 пикселей
Высота : 480 пикселей
Соотношение сторон : 4:3
Частота кадров : 25,000 кадров/сек
Цветовое пространство : YUV
Субдискретизация насыщенности : 4:2:0
Битовая глубина : 8 бит
Тип развёртки : Прогрессивная
Метод сжатия : С потерями
Бит/(ПикселиКадры) : 0.052
Размер потока : 14,3 Мбайт (74%)
Библиотека кодирования : Lavc51.40.4
Аудио
Идентификатор : 1
Формат : MPEG Audio
Версия формата : Version 1
Профиль формата : Layer 3
Режим : Joint stereo
Расширение режима : MS Stereo
Идентификатор кодека : 55
Идентификатор кодека/Подсказка : MP3
Продолжительность : 5 м. 3 с.
Вид битрейта : Постоянный
Битрейт : 128 Кбит/сек
Каналы : 2 канала
Частота : 44,1 КГц
Метод сжатия : С потерями
Размер потока : 4,64 Мбайт (24%)
Выравнивание : Соединение по промежуткам
Продолжительность промежутка : 26 мс. (0,65 видеокадр)
Библиотека кодирования : LAME3.97

Видео: 640x480 (1.33:1), 25 fps, DivX Codec 5.x or 6.x, 288-535 kbps avg, 0.05 bit/pixel

История обновлений

08.09.2013
БАЗОВЫЕ НАВЫКИ:
27 Урок – Набор петель. Лицевая петля - За заднюю стенку петли. 7 способ
28 Урок – Набор петель. Лицевая петля - За переднюю стенку петли. Английский метод. 9 способa
16.09.2013
БАЗОВЫЕ НАВЫКИ:
29 Урок – Набор петель. Лицевая петля - За заднюю стенку петли. Английский метод. 11 способ
30 Урок – Набор петель. Лицевая петля - За переднюю стенку петли. Нестандартный английский метод. 13 способ
23.09.2013
БАЗОВЫЕ НАВЫКИ:
31 Урок – Набор петель. Лицевая петля - За заднюю стенку петли. Нестандартный английский метод. 15 способ
32 Урок – Скрещенная лицевая петля - За переднюю стенку петли
29.09.2013
БАЗОВЫЕ НАВЫКИ:
33 Урок– Скрещенная лицевая петля - За заднюю стенку петли
34 Урок– Набор петель. Изнаночная петля - За переднюю стенку петли. Континентальный метод. 1 способ
35 Урок – Набор петель. Изнаночная петля - За заднюю стенку петли. Континентальный метод. 3 способ
16.10.2013
БАЗОВЫЕ НАВЫКИ:
36 Урок – Набор петель. Изнаночная петля - За переднюю стенку петли. Нестандартный континентальный метод. 5 способ
37 Урок – Набор петель. Изнаночная петля - За заднюю стенку петли. Нестандартный континентальный метод. 7 способ
38 Урок – Набор петель. Изнаночная петля - За переднюю стенку петли. Английский метод. 9 способ
39 Урок – Набор петель. Изнаночная петля - За заднюю стенку петли. Английский метод. 11 способ
29.10.2013
БАЗОВЫЕ НАВЫКИ:
40 Урок – Набор петель. Изнаночная петля - За переднюю стенку петли. Нестандартный английский метод. 13 способ
41 Урок – Набор петель. Изнаночная петля - За заднюю стенку петли. Нестандартный английский метод. 15 способ
42 Урок – Скрещенная изнаночная петля - За переднюю стенку петли
12.11.2013
БАЗОВЫЕ НАВЫКИ:
43 Урок – Скрещенная изнаночная петля - За заднюю стенку петли
УЗОРЫ:
1 Узор - Платочная вязка
2 Узор - Лицевая и изнаночная гладь
18.11.2013
УЗОРЫ:
3 Узор - Резинка 1х1


Источник: http://RuTracker.org/forum/viewtopic.php?t=4529119



Рекомендуем посмотреть ещё:



Скачать вязание на торрент трекере Катушка. net бесплатно и без регистрации Вязать снуд схема


Вязание спицами торрент Вязание спицами торрент Вязание спицами торрент Вязание спицами торрент Вязание спицами торрент Вязание спицами торрент Вязание спицами торрент


Рекомендуем посмотреть:





ШОКИРУЮЩИЕ НОВОСТИ